(Vocal Jazz) [CD] Caro Emerald - The Shocking Miss Emerald Deluxe 2013 [2 CD] - 2013, FLAC (image+.cue), lossless

Страницы:  1
Ответить
Автор
Сообщение

pishin

Стаж: 9 лет 5 месяцев

Сообщений: 306

pishin · 19-Май-17 13:15 (2 года 2 месяца назад, ред. 23-Май-17 16:58)

Caro Emerald / The Shocking Miss Emerald Deluxe 2013 [2 CD]
Жанр: Vocal Jazz
Носитель: CD
Страна-производитель диска (релиза): UK
Год издания: 2013
Издатель (лейбл): Dramatico (Grandmono Records)
Номер по каталогу: DRAMCD0098
Страна исполнителя (группы): Нидерланды
Аудиокодек: FLAC (*.flac)
Тип рипа: image+.cue
Битрейт аудио: lossless
Продолжительность: 00:56:14
Источник (релизер): Рип выполнен лично
Наличие сканов в содержимом раздачи: да
Треклист:
Треклист CD-1
CD: Caro Emerald - The Shocking Miss Emerald Deluxe Edition (CD1)
01. Miss Emerald: Intro [0:00:39.23]
02. One Day [0:04:29.18]
03. Coming Back As A Man [0:03:34.48]
04. Tangled Up [0:03:15.14]
05. Completely [0:02:29.33]
06. Black Valentine [0:05:03.45]
07. Pack Up The Louie [0:03:33.01]
08. I Belong To You [0:03:27.66]
09. The Maestro [0:02:37.19]
10. Liquid Lunch [0:03:59.60]
11. Excuse My French [0:03:52.45]
12. Paris [0:04:47.08]
13. My 2 Cents [0:03:45.59]
14. The Wonderful In You [0:03:08.61]
15. Tell Me How Long [0:02:26.73]
16. No Charge [0:02:33.41]
17. The Bullet [0:02:30.38]
Треклист CD-2 Live In Glasgow
CD: Caro Emerald - Live in Glasgow
01. Miss Emerald - Intro (Live in Glasgow) [0:00:44.60]
02. One Day (Live in Glasgow) [0:04:35.13]
03. Completely (Live in Glasgow) [0:02:38.08]
04. The Maestro (Live in Glasgow) [0:02:41.33]
05. Black Valentine (Live in Glasgow) [0:05:30.70]
06. Pack Up The Louie (Live in Glasgow) [0:03:51.36]
07. Liquid Lunch (Live in Glasgow) [0:04:07.56]
08. Back it Up (Live in Glasgow) [0:04:46.21]
09. I Belong To You (Live in Glasgow) [0:03:35.69]
10. Coming Back As A Man (Live in Glasgow) [0:03:29.74]
11. Riviera Life (Live in Glasgow) [0:04:12.55]
12. Dr. Wanna Do (Live in Glasgow) [0:04:57.03]
13. Stuck (Live in Glasgow) [0:04:09.38]
14. Tangled Up (Live in Glasgow) [0:04:36.74]
15. My 2 Cents (Live in Glasgow) [0:04:25.37]
16. The Wonderful In You (Live in Glasgow) [0:04:26.73]
17. A Night Like This (Live in Glasgow) [0:07:08.56]
18. If You Go Away (Ne Me Quitte Pas) (Live in Glasgow) [0:04:25.56]
Отчёт EAC CD-1
Exact Audio Copy V1.0 beta 3 from 29. August 2011
Отчёт EAC об извлечении, выполненном 19. мая 2017, 14:08
Caro Emerald / The Shocking Miss Emerald Deluxe Edition (CD1)
Дисковод: PLEXTOR DVDR PX-755A Adapter: 0 ID: 0
Режим чтения : Достоверность
Использование точного потока : Да
Отключение кэша аудио : Да
Использование указателей C2 : Нет
Коррекция смещения при чтении : 30
Способность читать области Lead-in и Lead-out : Нет
Заполнение пропущенных сэмплов тишиной : Да
Удаление блоков с тишиной в начале и конце : Нет
При вычислениях CRC использовались нулевые сэмплы : Да
Интерфейс : Установленный внешний ASPI-интерфейс
Выходной формат : Пользовательский кодировщик
Выбранный битрейт : 1024 kBit/s
Качество : Высокий
Добавление ID3-тега : Нет
Утилита сжатия : C:\Program Files (x86)\Exact Audio Copy\Flac\flac.exe
Дополнительные параметры : -V -8 -T "Date=%year%" -T "Genre=%genre%" %source%
TOC извлечённого CD
Трек | Старт | Длительность | Начальный сектор | Конечный сектор
---------------------------------------------------------------------
1 | 0:00.00 | 0:39.23 | 0 | 2947
2 | 0:39.23 | 4:29.18 | 2948 | 23140
3 | 5:08.41 | 3:34.48 | 23141 | 39238
4 | 8:43.14 | 3:15.14 | 39239 | 53877
5 | 11:58.28 | 2:29.33 | 53878 | 65085
6 | 14:27.61 | 5:03.45 | 65086 | 87855
7 | 19:31.31 | 3:33.01 | 87856 | 103831
8 | 23:04.32 | 3:27.66 | 103832 | 119422
9 | 26:32.23 | 2:37.19 | 119423 | 131216
10 | 29:09.42 | 3:59.60 | 131217 | 149201
11 | 33:09.27 | 3:52.45 | 149202 | 166646
12 | 37:01.72 | 4:47.08 | 166647 | 188179
13 | 41:49.05 | 3:45.59 | 188180 | 205113
14 | 45:34.64 | 3:08.61 | 205114 | 219274
15 | 48:43.50 | 2:26.73 | 219275 | 230297
16 | 51:10.48 | 2:33.41 | 230298 | 241813
17 | 53:44.14 | 2:30.38 | 241814 | 253101
Характеристики диапазона извлечения и сообщения об ошибках
Выбранный диапазон
Имя файла E:\РАЗДАЧА\Caro Emerald - The Shocking Miss Emerald Deluxe 2013 [2 CD]\CD-1\Caro Emerald - The Shocking Miss Emerald Deluxe Edition (CD1).wav
Пиковый уровень 98.8 %
Скорость извлечения 2.5 X
Качество диапазона 100.0 %
CRC теста 4386F516
CRC копии 4386F516
Копирование... OK
Ошибок не произошло
AccurateRip: сводка
Трек 1 : извлечено точно (доверие 47) [64EA0370] (AR v2)
Трек 2 : извлечено точно (доверие 47) [E0F8D46E] (AR v2)
Трек 3 : извлечено точно (доверие 47) [302C8280] (AR v2)
Трек 4 : извлечено точно (доверие 47) [30CAB400] (AR v2)
Трек 5 : извлечено точно (доверие 47) [980C983D] (AR v2)
Трек 6 : извлечено точно (доверие 47) [DE7D00E9] (AR v2)
Трек 7 : извлечено точно (доверие 47) [E4E2D405] (AR v2)
Трек 8 : извлечено точно (доверие 47) [0A2B13D2] (AR v2)
Трек 9 : извлечено точно (доверие 47) [ED6531D8] (AR v2)
Трек 10 : извлечено точно (доверие 47) [CB9F9969] (AR v2)
Трек 11 : извлечено точно (доверие 47) [BCA7A07F] (AR v2)
Трек 12 : извлечено точно (доверие 47) [02AF3DCE] (AR v2)
Трек 13 : извлечено точно (доверие 47) [1209D336] (AR v2)
Трек 14 : извлечено точно (доверие 47) [FAB51428] (AR v2)
Трек 15 : извлечено точно (доверие 47) [897E816E] (AR v2)
Трек 16 : извлечено точно (доверие 47) [84C44E1F] (AR v2)
Трек 17 : извлечено точно (доверие 47) [91AE5AA9] (AR v2)
Все треки извлечены точно
Конец отчёта
==== Контрольная сумма отчёта 3B5B9F30C9D095628E0F75D0DBE111B07F470CF049EB1B264278CE02D191E6E1 ====
Отчёт EAC CD-2 Live In Glazgow
Exact Audio Copy V1.0 beta 3 from 29. August 2011
Отчёт EAC об извлечении, выполненном 19. мая 2017, 13:15
Caro Emerald / Live in Glasgow
Дисковод: PLEXTOR DVDR PX-755A Adapter: 0 ID: 0
Режим чтения : Достоверность
Использование точного потока : Да
Отключение кэша аудио : Да
Использование указателей C2 : Нет
Коррекция смещения при чтении : 30
Способность читать области Lead-in и Lead-out : Нет
Заполнение пропущенных сэмплов тишиной : Да
Удаление блоков с тишиной в начале и конце : Нет
При вычислениях CRC использовались нулевые сэмплы : Да
Интерфейс : Установленный внешний ASPI-интерфейс
Выходной формат : Пользовательский кодировщик
Выбранный битрейт : 1024 kBit/s
Качество : Высокий
Добавление ID3-тега : Нет
Утилита сжатия : C:\Program Files (x86)\Exact Audio Copy\Flac\flac.exe
Дополнительные параметры : -V -8 -T "Date=%year%" -T "Genre=%genre%" %source%
TOC извлечённого CD
Трек | Старт | Длительность | Начальный сектор | Конечный сектор
---------------------------------------------------------------------
1 | 0:00.00 | 0:44.60 | 0 | 3359
2 | 0:44.60 | 4:35.13 | 3360 | 23997
3 | 5:19.73 | 2:38.08 | 23998 | 35855
4 | 7:58.06 | 2:41.33 | 35856 | 47963
5 | 10:39.39 | 5:30.70 | 47964 | 72783
6 | 16:10.34 | 3:51.36 | 72784 | 90144
7 | 20:01.70 | 4:07.56 | 90145 | 108725
8 | 24:09.51 | 4:46.21 | 108726 | 130196
9 | 28:55.72 | 3:35.69 | 130197 | 146390
10 | 32:31.66 | 3:29.74 | 146391 | 162139
11 | 36:01.65 | 4:12.55 | 162140 | 181094
12 | 40:14.45 | 4:57.03 | 181095 | 203372
13 | 45:11.48 | 4:09.38 | 203373 | 222085
14 | 49:21.11 | 4:36.74 | 222086 | 242859
15 | 53:58.10 | 4:25.37 | 242860 | 262771
16 | 58:23.47 | 4:26.73 | 262772 | 282794
17 | 62:50.45 | 7:08.56 | 282795 | 314950
18 | 69:59.26 | 4:25.56 | 314951 | 334881
Характеристики диапазона извлечения и сообщения об ошибках
Выбранный диапазон
Имя файла E:\РАЗДАЧА\Caro Emerald - The Shocking Miss Emerald Deluxe 2013 [2 CD]\CD-2 Live In Glasgow\Caro Emerald - Live in Glasgow.wav
Пиковый уровень 98.8 %
Скорость извлечения 2.5 X
Качество диапазона 99.9 %
CRC теста 0E9372B2
CRC копии 0E9372B2
Копирование... OK
Ошибок не произошло
AccurateRip: сводка
Трек 1 : извлечено точно (доверие 43) [C9D85DEE] (AR v2)
Трек 2 : извлечено точно (доверие 42) [7F23DEE9] (AR v2)
Трек 3 : извлечено точно (доверие 42) [DE5B50B6] (AR v2)
Трек 4 : извлечено точно (доверие 43) [1DFAF4BA] (AR v2)
Трек 5 : извлечено точно (доверие 42) [2F482B9C] (AR v2)
Трек 6 : извлечено точно (доверие 41) [C779D2A8] (AR v2)
Трек 7 : извлечено точно (доверие 43) [D2949B77] (AR v2)
Трек 8 : извлечено точно (доверие 42) [033D7BA8] (AR v2)
Трек 9 : извлечено точно (доверие 42) [1E358CC5] (AR v2)
Трек 10 : извлечено точно (доверие 43) [01581A4A] (AR v2)
Трек 11 : извлечено точно (доверие 43) [CB823A77] (AR v2)
Трек 12 : извлечено точно (доверие 43) [7A46BC52] (AR v2)
Трек 13 : извлечено точно (доверие 43) [88965BCC] (AR v2)
Трек 14 : извлечено точно (доверие 43) [86185E1C] (AR v2)
Трек 15 : извлечено точно (доверие 43) [1386AF8A] (AR v2)
Трек 16 : извлечено точно (доверие 43) [12CC65F2] (AR v2)
Трек 17 : извлечено точно (доверие 42) [501A66C7] (AR v2)
Трек 18 : извлечено точно (доверие 42) [DCB937C8] (AR v2)
Все треки извлечены точно
Конец отчёта
==== Контрольная сумма отчёта 69A32AB1B4E1B8EDD2A4510C6A9A5559FC383A3FFC6977FEE8893CB72B961656 ====
Download
Сайт не распространяет и не хранит электронные версии произведений, а лишь предоставляет доступ к создаваемому пользователями каталогу ссылок на торрент-файлы, которые содержат только списки хеш-сумм
Как скачивать? (для скачивания .torrent файлов необходима регистрация)
[Профиль]  [ЛС] 

pishin

Стаж: 9 лет 5 месяцев

Сообщений: 306

pishin · 23-Май-17 17:01 (спустя 4 дня)

Откорректировал Страну производителя диска. Имеется Нидерландский образец (STEMRA GMCD075). Можно также снять рип для сравнения.
[Профиль]  [ЛС] 

valera-t

Стаж: 10 лет 11 месяцев

Сообщений: 7


valera-t · 07-Июл-19 11:25 (спустя 2 года 1 месяц)

Спасибо за труды!
[Профиль]  [ЛС] 
 
Ответить
Loading...
Error